#TITLE:Nyanderful!;
#SUBTITLE:Nyan Koi! OP;
#ARTIST:Yui Sakakibara;
#TITLETRANSLIT:;
#SUBTITLETRANSLIT:;
#ARTISTTRANSLIT:;
#CREDIT:;
#BANNER:;
#BACKGROUND:;
#LYRICSPATH:;
#CDTITLE:cdtitle.png;
#MUSIC:Nyan Koi - OP Subbed.mp3;
#OFFSET:0.000;
#SAMPLESTART:37.555;
#SAMPLELENGTH:12.000;
#SELECTABLE:YES;
#BPMS:0.000=160.020;
#STOPS:0.000=0.060
;
#BGCHANGES:0.000=Nyan Koi - OP Subbed.avi=1.000=0=0=1,
99999=-nosongbg-=1.000=0=0=0 // don't automatically add -songbackground-
;
// cache tags:
#FIRSTBEAT:2.000;
#LASTBEAT:237.500;
#SONGFILENAME:songs/Pack anime 1/Nyan Koi - OP Subbed/Nyan Koi - OP Subbed.sm;
#HASMUSIC:1;
#HASBANNER:0;
#MUSICLENGTH:89.784;
// end cache tags

//---------------dance-single - ----------------
#NOTES:
     dance-single:
     :
     Hard:
     9:
     0.730,0.727,0.479,0.657,0.089,357.000,43.000,59.000,0.000,0.000:
0000
0000
2000
3020
,
0230
0000
0301
0200
0000
0320
0000
1030
,
0001
0100
0010
1000
0002
0000
0103
0020
,
0000
1000
1000
1000
,
1000
1030
0002
0203
,
0302
0000
1003
0020
0000
0230
0000
0301
,
0100
0010
1000
0100
2000
0000
0000
3010
,
0200
0000
0001
0000
0001
0000
0001
0300
,
0020
0001
0032
0000
,
0000
0000
0000
0000
0000
0000
0000
0000
0003
0000
1000
0100
1000
0000
0000
0000
,
0010
0000
0100
0010
0100
0000
1000
0000
1001
0000
0000
0000
0010
0000
0000
0000
,
0100
0010
1000
1001
0000
0100
0010
0100
,
0000
0001
0100
0010
0110
0000
0001
0000
,
1000
0100
1000
1100
0000
0100
0010
0001
,
0000
0010
0001
1000
1001
0000
0010
0100
,
0001
0101
0000
0010
0000
1000
0100
1000
,
0000
0010
0100
0101
0000
0100
0010
1010
,
0000
1000
0001
1001
0000
0010
0100
0110
,
0000
0101
0000
0010
0001
0100
0010
0100
,
1000
0100
0010
0001
0100
0010
1000
0020
,
0000
1030
0010
0000
1010
1000
0010
0100
,
0001
1000
0100
1000
0010
1000
0100
0002
,
0000
1003
0001
0000
0101
0100
0010
1000
,
0010
0100
0002
0003
1010
0010
0100
0001
,
0100
0010
2000
3000
0110
0010
0100
0010
,
1000
0100
1000
0001
1000
0100
0010
2000
,
0000
3010
0200
0300
0011
0000
0010
0100
,
0001
0010
0100
0002
0000
2003
0010
3010
,
0100
0001
1001
0000
1010
0000
0010
0100
,
0001
1000
0100
0002
0000
0203
0010
0310
,
1000
0010
0100
0100
0101
0000
0110
0010
,
1000
0010
1000
0002
0000
0203
0000
0320
,
0000
2030
0100
3100
1100
0000
0101
0200
,
0000
0000
0310
0000
0001
1000
0000
0001
,
0100
0000
0010
0000
1000
0000
0100
0000
1100
0000
0100
1000
0100
0000
0010
0100
,
0010
0100
0110
0000
0000
0100
0010
1000
,
0001
0000
1000
0010
0000
0100
0001
0000
0011
0000
0010
0001
0010
0000
0100
0010
,
0100
0010
0110
0000
0000
0100
0000
0010
,
1000
0000
0001
0100
0000
0000
0001
0000
0202
0000
0000
0000
0303
0000
0220
0000
,
0000
0330
2020
0000
3030
0202
0000
0303
,
1010
0000
0010
0000
0022
0000
0033
2020
,
0000
3030
2002
0000
0000
0000
0003
3001
,
0000
1001
0000
1000
0010
0000
0100
1000
,
0010
0100
0001
0101
0000
0200
0000
0310
,
0100
0001
0100
1000
0200
0000
0310
2000
,
0010
0000
0010
0010
0000
0010
0000
0010
,
0000
3010
0000
0010
0011
0000
0100
0001
,
0010
1000
0100
1100
0000
0020
0000
0130
,
0001
0010
0001
1000
0200
0000
1300
0020
,
1000
1030
0000
1000
0010
0100
0010
0002
,
0000
0100
0013
1000
0010
1000
0010
0000
1010
0000
0000
0000
0100
0000
0010
0000
,
1000
0001
0100
0101
0000
0100
0000
0001
,
0010
0001
0100
0010
2000
0000
3001
0020
,
0001
0100
0000
0100
0000
0100
0000
0100
,
0000
0100
0130
0000
0010
0000
1010
1000
,
0020
0000
0130
0210
0000
0310
0000
0001
,
0100
0010
1000
0010
0200
0010
0310
2000
,
0000
0010
3100
0000
0010
0000
0100
0000
0001
0000
0100
0000
0010
0000
1000
0000
,
0001
0000
0100
0000
0001
0000
1000
0000
0002
0000
0000
0000
0013
0000
0100
0010
,
0100
0010
0100
0010
0100
0000
0110
0000
0000
0000
0000
0000
0000
0000
0000
0000
;

//---------------dance-single - Copied from----------------
#NOTES:
     dance-single:
     Copied from:
     Medium:
     6:
     0.531,0.496,0.234,0.468,0.022,271.000,21.000,42.000,0.000,0.000:
0000
0000
1000
0010
,
0200
0000
0300
0001
0000
0020
0000
1030
,
0001
0000
0010
0000
0001
0000
0100
0020
,
0000
0000
0000
0000
,
0000
0030
0001
0100
,
0002
0000
1003
0020
0000
0130
0000
0001
,
0100
0000
0010
0000
1000
0000
0000
0010
,
0200
0000
0000
0000
0000
0000
0000
0300
,
0020
0000
0032
0000
,
0000
0000
0000
0000
0003
2000
3000
0000
,
0010
0200
0300
0000
1001
0000
0010
0000
,
0100
0010
0000
1010
0000
0100
0010
0100
,
0000
0001
0100
0000
0110
0000
0001
0000
,
1000
0100
0000
1100
0000
0010
0000
0100
,
0000
0010
0001
0000
1001
0000
0010
0100
,
0001
0010
0000
0010
0000
1000
0100
1000
,
0000
0010
0100
0001
0000
0100
0010
1000
,
0000
1000
0001
1000
0000
0010
0100
0010
,
0000
0101
0000
0010
0001
0000
0010
0000
,
1000
0000
0010
0000
0100
0010
1000
0020
,
0000
1030
0010
0000
0010
0000
0010
1000
,
0010
1000
0100
1000
0010
1000
0010
0002
,
0000
1003
0001
0000
0101
0000
0010
1000
,
0010
0000
0001
0000
1010
0000
0100
0001
,
0100
0000
1000
0000
0110
0000
0100
0001
,
0100
0001
0100
0010
0100
0001
0100
0002
,
0000
0103
0001
0000
0100
0000
0010
0000
,
2000
0000
3100
0002
0000
1003
0000
0001
,
1000
0001
1000
0000
1000
0000
0100
0000
,
0020
0000
0031
2000
0000
3100
0000
0010
,
0100
0010
0100
0000
0010
0000
0100
0000
,
2000
0000
3010
0002
0000
0103
0000
0020
,
0000
0130
1000
0100
1000
0000
0001
0200
,
0000
0000
0310
0000
0001
1000
0000
0001
,
0100
0010
1000
0000
1100
0000
0000
0110
,
0000
0000
1001
0000
0000
0100
0010
1000
,
0010
0000
1000
0000
0000
0100
0000
0000
0011
0000
0000
0000
0000
0000
0110
0000
,
0000
0000
1001
0000
0000
0100
0000
0010
,
1000
0000
0000
0100
0000
0000
0100
0000
0002
0000
0000
0000
0003
0000
0200
0000
,
0000
0300
0020
0000
0030
2000
0000
3000
,
1010
0000
0010
0000
2000
0000
3000
0020
,
0000
0030
2000
0000
0000
0000
0000
3001
,
0000
0010
0000
1000
0010
0000
0100
0000
,
0010
0000
0001
1000
0000
0200
0000
0310
,
1000
0001
1000
0010
0200
0000
0310
1000
,
0000
0010
0000
1010
0000
0010
0000
0110
,
0000
0001
0000
0000
0001
0000
0100
0000
,
0010
0000
0001
1000
0000
0020
0000
0130
,
0001
0010
0001
0100
0020
0000
1030
0010
,
0000
1000
0000
0001
0010
0100
0010
0002
,
0000
0100
0013
0000
0000
0000
0000
0000
1000
0000
0000
0000
0100
0000
0000
0000
,
0001
0000
1000
0010
0000
0200
0000
0301
,
1000
0001
1000
0001
0200
0000
0301
0020
,
0000
0130
0000
1001
0000
1000
0000
1010
,
0000
1000
0000
0000
0010
0000
1000
0000
,
0020
0000
0130
0002
0000
0013
0000
0001
,
0100
0000
0001
0000
0200
0000
0300
2000
,
0000
0010
3100
0000
0001
0000
0000
0000
0010
0000
1000
0000
0010
0000
0100
0000
,
0001
0100
0001
0010
0002
0000
0003
0200
,
0000
0300
0010
0110
0000
0000
0000
0000
;

//---------------dance-single - Copied from Copied f----------------
#NOTES:
     dance-single:
     Copied from Copied f:
     Easy:
     4:
     0.345,0.397,0.033,0.323,0.000,185.000,3.000,29.000,0.000,0.000:
0000
0000
1000
0010
,
0002
0000
0000
0103
0000
0002
0000
0000
,
1003
0000
0010
0000
0001
0000
0000
0020
,
0000
0000
0000
0000
,
0000
0030
0001
0100
,
2000
0000
0000
3010
0000
2000
0000
0000
,
3100
0010
2000
0000
,
3200
0000
0000
0000
0000
0000
0000
0300
,
0020
0000
0032
0000
,
0000
0000
0000
0000
0003
1000
0000
0000
,
0000
0010
0000
0000
1000
0000
0010
0000
,
0000
0010
0000
1000
0000
0000
0001
0100
,
0000
0100
1000
0001
,
0000
0100
0000
0001
0000
0010
0000
0100
,
0000
1000
0000
0000
0001
0000
0100
0000
,
0000
0100
0000
0001
0000
0000
0100
0001
,
0000
0000
0000
0001
0000
0000
0000
1000
,
0000
0000
0000
1000
0000
0000
0000
0001
,
0000
0100
0000
0000
0001
0000
0010
0000
,
0000
0000
0000
0000
,
0001
0100
0010
1000
,
0001
0100
0001
0010
,
1000
0001
0100
0010
,
0100
0001
0100
0010
,
0100
0001
0010
1000
,
0001
0000
0100
0000
0010
0000
0000
1000
,
0000
0001
0000
0000
0100
0000
0010
0000
,
2000
0000
3000
0002
0000
1003
0000
0000
,
0010
1000
1000
0100
,
0020
0000
0030
2000
0000
3100
0000
0000
,
0100
0010
0010
0100
,
2000
0000
3000
0002
0000
1003
0000
0010
,
0000
0000
1000
0000
0010
0000
0000
0200
,
0000
0000
0310
0000
0000
1000
0000
0000
,
0100
0000
0010
0000
0200
0000
0000
0020
,
0000
0330
0110
0000
0000
0000
1000
0000
,
0010
0000
1000
0000
0002
0000
0000
2000
,
0000
3003
1001
0000
0000
0100
0000
0000
,
1000
0000
0010
0000
0002
0000
0003
0200
,
0000
0300
0020
0000
0030
2000
0000
3000
,
1010
0000
0010
0000
2000
0000
3000
0020
,
0000
0030
2000
0000
0000
0000
0000
3001
,
0000
0010
0000
0000
1000
0000
0100
0000
,
0010
0000
0000
1000
0000
0001
0000
0000
,
0010
0000
1000
0000
0010
0000
0000
1000
,
0000
0010
0000
0100
0000
0001
0000
0010
,
0000
0001
0000
0000
0001
0000
0100
0000
,
0010
0000
0000
1000
0000
0010
0000
0000
,
0100
0001
0100
0010
,
0000
1000
0000
0000
0001
0000
0100
0000
,
0001
0010
0000
0000
1000
0000
0010
0000
,
0100
0000
0000
0010
0000
0100
0000
0000
,
1000
0000
0010
0000
0100
0000
0000
0100
,
0000
0010
0000
0001
0000
0100
0000
0010
,
0000
1000
0000
0000
0010
0000
1000
0000
,
0010
0000
0000
0100
0000
0010
0000
0000
,
0100
0000
0001
0000
0001
0000
0000
1000
,
0000
0100
1000
0000
0010
0000
0100
0000
,
0001
0000
0010
0000
0002
0000
0003
0200
,
0000
0300
0010
0100
0000
0000
0000
0000
;
